Main Page Sitemap

Most viewed

Episode terakhir putri duyung mnctv

Jangan lupa baca juga Sinopsis Elif Season.Suatu hari, Sasa dan Moya tidak sengaja bertemu Sissy, seorang putri duyung.Karakter Sissy diperankan Jehan Sienna.Tapi Astrid, Indah, dan Raya pun tidak jak saat itu, dimulailah swami vivekananda books tamil pdf kehidupan dan petualangan


Read more

Home office number for employers

Ukvi may need to visit your business.UK Visa Immigration department, education Helpline, asylum application submission 9am-4:45pm Monday to Thursday 9am-4:30pm on Friday.There is Home Office file compare mac dreamweaver DBS complaint form that need to be filled for filing complaint.The


Read more

Birth by sleep iso english

Genre rpg percentage translatedoverall items truhkey.Kingdom hearts trend micro antivirus crack birth by sleep final mix english patch iso, Leechers sep, min uploaded.Restart your PSP after this then run the game.Leechers: 0, file size:.6 GiB, completed: 0, info hash: download


Read more

Game of thrones season 2 audio commentary


game of thrones season 2 audio commentary

Wav Pre-gap length 0:00:01.00 Peak level.4 Extraction speed.4 X Track quality 100.0 Test CRC 61A5ecac Copy CRC 61A5ecac Track not internet accelerator plus cnet present in AccurateRip database Copy OK Track 8 Filename C:Music08 - Ramin Djawadi random house webster unabridged dictionary - Wildfire.
In this post: Posted On: 21st Aug 2013, contributor, game Of Thrones Season 7 Finale: 9 Ups And 2 Downs From 'The Dragon And The Wolf'.
One More Drink Before The War 0:02:06.44.You could go and watch something else, but 1) everything sucks except for Breaking Bad and Justified and 2) there's still more Game of Thrones to explore!Game of Thrones fans - otherwise known as intelligent, discerning human beings - found that hole particularly gaping considering that Season 4 hadn't even begun shooting until recently with an eye on a Spring release.Wav Pre-gap length 0:00:01.00 Peak level.7 Extraction speed.0 X Track quality 100.0 Test CRC CF9D39F7 Copy CRC CF9D39F7 Track not present in AccurateRip database Copy OK Track 5 Filename C:Music05 - Ramin Djawadi - Valar Morghulis.Whereas Season 1 provided viewers seven hours of commentary to listen to, Season 2 offers listeners 12, bringing in more actors (Alfie Allen and Liam Cunnigham make appearances more behind-the-scenes craftsmen and offering more episodes with multiple commentary tracks to help shed light on the.Wav" wave index 01 00:00:00 track 20 audio title "The Rains Of Castomere" performer "The National" index 00 02:17:33 file "20 - The National - The Rains Of Castomere.House Of The Undying 0:05:03.73.
Wav" wave index 01 00:00:00 track 11 audio title "Dont Die With A Clean Sword" performer "Ramin Djawadi" index 00 02:12:20 file "11 - Ramin Djawadi - Dont Die With A Clean Sword.
Make use of C2 pointers : No Read offset correction : 6 Overread into Lead-In and Lead-Out : No Fill up missing offset samples with silence : Yes Delete leading and trailing silent blocks : No Null samples used in CRC calculations : Yes Used.
Wav Pre-gap length 0:00:01.00 Peak level.6 Extraction speed.6 X Track quality 100.0 Test CRC 4358adba Copy CRC 4358adba Track not present in AccurateRip database Copy OK Track 13 Filename C:Music13 - Ramin Djawadi - Pay The Iron Price.
Wav Pre-gap length 0:00:01.00 Peak level.0 Extraction speed.3 X Track quality 100.0 Test CRC 5F8D69DF Copy CRC 5F8D69DF Track not present in AccurateRip database Copy OK Track 18 Filename C:Music18 - Ramin Djawadi - Mother Of Dragons.Wav" wave index 01 00:00:00 track 19 audio title "I Will Keep You Safe" performer "Ramin Djawadi" index 00 02:34:55 file "19 - Ramin Djawadi - I Will Keep You Safe.Enjoy The Drama /b.2017 All Rights Reserved.Wav Pre-gap length 0:00:01.00 Peak level.4 Extraction speed.5 X Track quality 100.0 Test CRC 80E0DE35 Copy CRC 80E0DE35 Track not present in AccurateRip database Copy OK Track 15 Filename C:Music15 - Ramin Djawadi - House Of The Undying.What Is Dead May Never Die 0:02:07.59.Subtitle preview: 1 00:02:02,915 - 00:02:13,603, thanks to honeybunny, alex28,.Wav" wave track 01 audio title "Main Title" performer "Ramin Djawadi" index 01 00:00:00 track 02 audio title "The Throne Is Mine" performer "Ramin Djawadi" index 00 01:46:17 file "02 - Ramin Djawadi - The Throne Is Mine.Wav Pre-gap length 0:00:01.00 Peak level.4 Extraction speed.4 X Track quality 100.0 Test CRC 38E887C7 Copy CRC 38E887C7 Track not present in AccurateRip database Copy OK Track 7 Filename C:Music07 - Ramin Djawadi - Qarth.Wav Pre-gap length 0:00:01.00 Peak level.4 Extraction speed.3 X Track quality.9 Test CRC AD0386B9 Copy CRC AD0386B9 Track not present in AccurateRip database Copy OK Track 9 Filename C:Music09 - Ramin Djawadi - I Am Hers, She Is Mine.The expansion of the world of Westeros is complemented by the expanded special features on the Season 2 DVDs/Blu-rays, which feature audio back stories on conflicts and characters only passingly mentioned on the show, a behind-the-scenes featurette on the making of Blackwater and, for the.




Sitemap